Udemy – Python Web Programming



Udemy – Python Web Programming
WEBRip | English | MP4 | 1920 x 1080 | AVC ~501 Kbps | 29.970 fps

AAC | 384 Kbps | 48.0 KHz | 2 channels | ~6 hours | 6.14 GB
Genre: Video Tutorial

Access and parse the web with Python

Imagine powering up your tablet and browsing a site you built. Or discovering the skills necessary to launch a career in web programming. Or imagine, after years of thinking about it, finally crossing “become code literate” off your bucket list. The Stone River eLearning course Python Web Programming will ease you through the big, vast world of Python web programming. Over the course of 7 hours, you’ll be introduced to all the innovative concepts and foundational principles necessary to master web programming with Python. So whether you’re an upstart programmer, an aspiring web developer, or someone just looking to gain a deeper understanding of python web programming, with this course you’ll acquire the understanding and the confidence to conquer all things Python.

Three Reasons to Learn Web Programming With Python

It’s easy and quick to learn: Forget strict syntax rules and endless strings of coding, Python was designed with simplicity in mind. And you’ll be busy coding before you know it. Why? Because Python requires less time, less code and less concepts than all other programming languages.
It’s a stepping stone: New to object-oriented coding, or programming all together? Get your feet wet with the most versatile coding language on the market. Python Web Programming teaches you sound foundational skills that are easily transferable to other, more tedious languages.
It’s a money maker: The demand for Python web programmers is booming. In fact, it’s the most popular coding language in the world. Used by giants like Google, Pinterest and Instagram, it’s is the only language you’ll need to begin a career in Python web programming, design your own games, software, websites and work with Big Data. And that’s just for starters.
How is this course different?

We understand. There are other Python courses, but Python Web Programming dives deep into all aspects of web programming with Python. We pull back the curtain on web programming with Python—giving you an unparalleled understanding of the art and science behind it, but we don’t stop there. You’ll graduate with the all the tools necessary to build vibrant, sustainable web based programs.

You see, this course was created as a labor of love. In fact, it’s delivered with a level of quality and expertise you’d expect from an elite university –-not an online course.

What are the requirements?

A computer
PC, Mac or Linux Operating Systems OK
What am I going to get from this course?

Over 60 lectures and 6 + hours of content!
Acquire an in-depth understanding of Python web programming.
Get hands on experience working with Python files and building programs
What is the target audience?

Programmers
Aspiring web developers and app creators
Anyone aspiring to become code literate

Who this course is for:
Programmers with basic Python knowledge
Anyone interested in web development
Those interested in Python databases
Aspiring web developers
Those looking to learn more than the basics of Python programming
Do not take the course if you have never used Python before

What you’ll learn
Access and parse the web with Python.
Manage a database.
Manage remote server
Run code via a VPS
Create a basic website with Python

Complete name : 04 – object Oriented Programming Part 2.mp4
Format : MPEG-4
Format profile : Base Media / Version 2
Codec ID : mp42 (isom/iso2/avc1/mp41)
File size : 46.3 MiB
Duration : 7 min 16 s
Overall bit rate mode : Variable
Overall bit rate : 888 kb/s
Encoded date : UTC 2036-02-06 06:28:16
Tagged date : UTC 2036-02-06 06:28:16
Writing application : HandBrake 0.10.2 2015060900

Video
ID : 1
Format : AVC
Format/Info : Advanced Video Codec
Format profile : [email protected]
Format settings : CABAC / 4 Ref Frames
Format settings, CABAC : Yes
Format settings, RefFrames : 4 frames
Codec ID : avc1
Codec ID/Info : Advanced Video Coding
Duration : 7 min 16 s
Bit rate : 501 kb/s
Width : 1 920 pixels
Height : 1 080 pixels
Display aspect ratio : 16:9
Frame rate mode : Variable
Frame rate : 29.970 (29970/1000) FPS
Minimum frame rate : 14.985 FPS
Maximum frame rate : 29.970 FPS
Color space : YUV
Chroma subsampling : 4:2:0
Bit depth : 8 bits
Scan type : Progressive
Bits/(Pixel*Frame) : 0.008
Stream size : 26.1 MiB (56%)
Writing library : x264 core 142 r2479 dd79a61
Encoding settings : cabac=1 / ref=1 / deblock=1:0:0 / analyse=0x1:0x111 / me=hex / subme=2 / psy=1 / psy_rd=1.00:0.00 / mixed_ref=0 / me_range=16 / chroma_me=1 / trellis=0 / 8x8dct=0 / cqm=0 / deadzone=21,11 / fast_pskip=1 / chroma_qp_offset=0 / threads=3 / lookahead_threads=1 / sliced_threads=0 / nr=0 / decimate=1 / interlaced=0 / bluray_compat=0 / constrained_intra=0 / bframes=3 / b_pyramid=2 / b_adapt=1 / b_bias=0 / direct=1 / weightb=1 / open_gop=0 / weightp=1 / keyint=300 / keyint_min=30 / scenecut=40 / intra_refresh=0 / rc_lookahead=10 / rc=crf / mbtree=1 / crf=1.0 / qcomp=0.60 / qpmin=0 / qpmax=69 / qpstep=4 / vbv_maxrate=20000 / vbv_bufsize=25000 / crf_max=0.0 / nal_hrd=none / filler=0 / ip_ratio=1.40 / aq=1:1.00
Encoded date : UTC 2036-02-06 06:28:16
Tagged date : UTC 2036-02-06 06:28:16
Color range : Limited
Color primaries : BT.709
Transfer characteristics : BT.709
Matrix coefficients : BT.709

Audio
ID : 2
Format : AAC
Format/Info : Advanced Audio Codec
Format profile : LC
Codec ID : mp4a-40-2
Duration : 7 min 16 s
Bit rate mode : Variable
Bit rate : 384 kb/s
Channel(s) : 2 channels
Channel positions : Front: L R
Sampling rate : 48.0 kHz
Frame rate : 46.875 FPS (1024 SPF)
Compression mode : Lossy
Stream size : 19.8 MiB (43%)
Title : Stereo / Stereo
Language : English
Default : Yes
Alternate group : 1
Encoded date : UTC 2036-02-06 06:28:16
Tagged date : UTC 2036-02-06 06:28:16

ICERBOX LINK:

Download Udemy – Python Web Programming

Download Udemy – Python Web Programming

Download Udemy – Python Web Programming

Download Udemy – Python Web Programming

Download Udemy – Python Web Programming

Download Udemy – Python Web Programming

Download Udemy – Python Web Programming

Download Udemy – Python Web Programming

Log in with your credentials

Forgot your details?