Steve Mauro – Beat The Market Maker (Update 2019)



Steve Mauro – Beat The Market Maker (Update 2019)
WEBRip | English | MP4 + PDF Guides | 1508 x 712 | AVC ~152 Kbps | 30 fps

AAC | 254 Kbps | 44.1 KHz | 2 channels | ~28 hours | 8.78 GB
Genre: eLearning Video / Forex, Trading, Stock

Ready to learn what’s REALLY going on in the markets? Trading Forex can enable you to take charge of your financial future, and earn consistent, sizeable profits. That is, if you know how to beat the market maker.

Friends, as I write this, gold hit all time highs, the stock market is in turmoil, and unemployment is running rampant throughout the country. What does this all mean to you as a trader? In short, absolutely nothing!

No matter how bad the pundits say the economy is, I bag my limit every time I trade. My wife and child are sheltered from turmoil in the markets… and the price of gas? Irrelevant in here!! Whether or not you realize it yet, we are all part of something bigger than ourselves. The knowledge that I share in my class is the key to financial stability in your lives and the lives of your children. Do not take this opportunity for granted. I promise you, if you get focused and roll up your sleeves, you will find it. If you ever had a chance at success as a trader it is through this doorway! I am extending my hand. Will you step through?

Value: $3997

(if old file-links don’t show activity, try copy-paste them to the address bar)

Complete name : btmm dmr 20190204 8.30pm new york.mp4
Format : MPEG-4
Format profile : Base Media / Version 2
Codec ID : mp42 (isom/mp42)
File size : 112 MiB
Duration : 38 min 25 s
Overall bit rate mode : Variable
Overall bit rate : 408 kb/s
Encoded date : UTC 2019-02-05 06:25:38
Tagged date : UTC 2019-02-05 06:25:38

Video
ID : 1
Format : AVC
Format/Info : Advanced Video Codec
Format profile : [email protected]
Format settings : CABAC / 3 Ref Frames
Format settings, CABAC : Yes
Format settings, RefFrames : 3 frames
Codec ID : avc1
Codec ID/Info : Advanced Video Coding
Duration : 38 min 25 s
Bit rate : 152 kb/s
Width : 1 508 pixels
Height : 712 pixels
Display aspect ratio : 2.118
Frame rate mode : Constant
Frame rate : 30.000 FPS
Standard : NTSC
Color space : YUV
Chroma subsampling : 4:2:0
Bit depth : 8 bits
Scan type : Progressive
Bits/(Pixel*Frame) : 0.005
Stream size : 41.7 MiB (37%)
Language : English
Encoded date : UTC 2019-02-05 06:25:38
Tagged date : UTC 2019-02-05 06:25:38
Color range : Limited

Audio
ID : 2
Format : AAC
Format/Info : Advanced Audio Codec
Format profile : LC
Codec ID : mp4a-40-2
Duration : 38 min 25 s
Bit rate mode : Variable
Bit rate : 254 kb/s
Maximum bit rate : 403 kb/s
Channel(s) : 2 channels
Channel positions : Front: L R
Sampling rate : 44.1 kHz
Frame rate : 43.066 FPS (1024 SPF)
Compression mode : Lossy
Stream size : 69.7 MiB (62%)
Language : English
Encoded date : UTC 2019-02-05 06:25:38
Tagged date : UTC 2019-02-05 06:25:38

ICERBOX LINK:

Download Steve Mauro – Beat The Market Maker (Update 2019)

Download Steve Mauro – Beat The Market Maker (Update 2019)

Download Steve Mauro – Beat The Market Maker (Update 2019)

Download Steve Mauro – Beat The Market Maker (Update 2019)

Download Steve Mauro – Beat The Market Maker (Update 2019)

Download Steve Mauro – Beat The Market Maker (Update 2019)

Download Steve Mauro – Beat The Market Maker (Update 2019)

Download Steve Mauro – Beat The Market Maker (Update 2019)

Download Steve Mauro – Beat The Market Maker (Update 2019)

Log in with your credentials

Forgot your details?