Martha Peterson – Pain Relief Through Movement Pain-Free Athletes



  • Martha Peterson – Pain Relief Through Movement

    Pain-Free Athletes * Legs and Hips * Neck and Shoulders
    3xDVDRip | AVI | English | 704 x 400 | XviD ~2186 kbps | 25 fps
    MP3 ~128 Kbps | 48.0 KHz | 2 channels | 03:33:44 | 3.28 GB
    Genre: eLearning Video / Somatic, Rehabilitation, Health, Sport

    I think that it is most helpful dvd to release your chronic pain, posture and training. This post is included in 3dvds of 4dvds leg and hip, neck and shoulder , ATHLETES Athletes are known for working hard, training hard and often having to retire earlier than expected due to repetitive injuries and chronic muscle pain. When an athlete is injured, sometimes repeatedly, what develops is a learned pattern of physical compensation and reflexive muscular tightening, often even after the initial rehabilitation is over.

    Martha Peterson – Pain-Free Athletes – No Pain, All Gain

    Athletes work hard, train hard and often have to retire earlier than expected due to repetitive injuries and chronic muscle pain. Learn to overcome training injuries and regain balance and symmetry with these easy Somatic Exercises.
    Athletes are known for working hard, training hard and often having to retire earlier than expected due to repetitive injuries and chronic muscle pain. When an athlete is injured, sometimes repeatedly, what develops is a learned pattern of physical compensation and reflexive muscular tightening, often even after the initial rehabilitation is over.

    The Somatic Exercises on this DVD will help athletes, whether amateur or professional, to:
    move without pain overcome training injuries that compromised your form
    improve muscle balance and efficiency
    prevent recurring injuries and recover from recent ones
    The specially designed “playlist” of exercises will show you how to combine several of the most basic Somatic Exercises (ie. the back lift, or the walking exercises) with exercises meant to target a painful area (ie.”hip lift and reach,” “invert/evert,” “psoas release,” “neck and shoulder variations”) for an effective overall routine.

    Pain-Free Legs and Hips

    In this video you’ll be learning easy, gentle movements that will relieve hip joint pain, improve mobility, coordination and muscle control in both legs and hip joints.
    Legs and hip joints can lose their flexibility and become tight and painful due to long hours sitting in a car or at a computer, a sudden fall or accident, or a one sided repetitive movement (like holding babies on one hip). can cause tight waist, back and hip muscles.

    This can cause the pelvis to become twisted or rotated, and one’s gait to become uneven. In this video you’ll be learning easy, gentle movements that will:
    relieve hip joint pain
    improve mobility, coordination and muscle control in both legs and hip joints
    improve walking, running, dancing and other activities
    help in overcoming injuries that resulted in leg, knee or hip pain

    Pain-Free Neck and Shoulders

    The muscles of the neck and shoulders can become painful and tight due to slumped posture, overly arched back muscles or one-sided repetitve movements (like computer mousing). Learn to relieve painful neck and shoulders, while improving posture and overall
    Lots of dental work can cause tight jaw, neck and shoulder muscles, all of which contribute to a host of painful conditions. Painful neck and shoulder muscles are also often stress-related, an indication of tight muscles in the center of the body. In this DVD you will learn Somatic Exercises that will:
    relieve neck and shoulder pain
    relax the muscles that connect the back, neck and shoulders
    improve posture
    relieve pain from excessive sitting, computer work, or driving
    This DVD is especially helpful for those suffering from slumped posture, “stiff” necks, disk problems, TMD, carpal tunnel, shallow breathing, tension headaches or frozen shoulder.

    Complete name : 08. Hamstring pandiculation – lying down.avi
    Format : AVI
    Format/Info : Audio Video Interleave
    File size : 76.9 MiB
    Duration : 4mn 37s
    Overall bit rate : 2 324 Kbps
    Writing application : VirtualDubMod 1.5.10.3 | | (build 2550/release)
    Writing library : VirtualDubMod build 2550/release

    Video
    ID : 0
    Format : MPEG-4 Visual
    Format profile : Advanced [email protected]
    Format settings, BVOP : 1
    Format settings, QPel : No
    Format settings, GMC : No warppoints
    Format settings, Matrix : Custom
    Codec ID : XVID
    Codec ID/Hint : XviD
    Duration : 4mn 37s
    Bit rate : 2 186 Kbps
    Width : 704 pixels
    Height : 400 pixels
    Display aspect ratio : 16:9
    Frame rate : 25.000 fps
    Color space : YUV
    Chroma subsampling : 4:2:0
    Bit depth : 8 bits
    Scan type : Progressive
    Compression mode : Lossy
    Bits/(Pixel*Frame) : 0.311
    Stream size : 72.3 MiB (94%)
    Writing library : XviD 65

    Audio
    ID : 1
    Format : MPEG Audio
    Format version : Version 1
    Format profile : Layer 3
    Codec ID : 55
    Codec ID/Hint : MP3
    Duration : 4mn 37s
    Bit rate mode : Constant
    Bit rate : 128 Kbps
    Channel(s) : 2 channels
    Sampling rate : 48.0 KHz
    Compression mode : Lossy
    Stream size : 4.24 MiB (6%)
    Alignment : Aligned on interleaves
    Interleave, duration : 40 ms (1.00 video frame)
    Interleave, preload duration : 504 ms
    Writing library : LAME3.99r
    Encoding settings : -m s -V 4 -q 2 -lowpass 17 -b 128

    ICERBOX LINK:

    Download Martha Peterson – Pain Relief Through Movement Pain-Free Athletes

    Download Martha Peterson – Pain Relief Through Movement Pain-Free Athletes

    Download Martha Peterson – Pain Relief Through Movement Pain-Free Athletes

    Download Martha Peterson – Pain Relief Through Movement Pain-Free Athletes

    Download Martha Peterson – Pain Relief Through Movement Pain-Free Athletes

    Download Martha Peterson – Pain Relief Through Movement Pain-Free Athletes

    Download Martha Peterson – Pain Relief Through Movement Pain-Free Athletes

    Log in with your credentials

    Forgot your details?