Lock Steps with Doug Silton

Picture for Lock Steps with Doug Silton


  • Lock Steps with Doug Silton

    DVD5 in ISO-image | English | VIDEO_TS | 720 x 480 | MPEG2 ~4045 kbps | 29.970 fps

    PCM | 1536 Kbps | 48.0 KHz | 2 channels | 01:01:43 | 2.6 GB

    Genre: eLearning Video / Dance

    Complete name : VTS_01_1.VOB

    Format : MPEG-PS

    File size : 1 024 MiB

    Duration : 25mn 8s

    Overall bit rate mode : Variable

    Overall bit rate : 5 695 Kbps

    Video

    ID : 224 (0xE0)

    Format : MPEG Video

    Format version : Version 2

    Format profile : Main@Main

    Format settings, BVOP : Yes

    Format settings, Matrix : Custom

    Format settings, GOP : M=3, N=15

    Duration : 25mn 8s

    Bit rate mode : Variable

    Bit rate : 4 045 Kbps

    Maximum bit rate : 7 000 Kbps

    Width : 720 pixels

    Height : 480 pixels

    Display aspect ratio : 4:3

    Frame rate : 29.970 fps

    Standard : NTSC

    Color space : YUV

    Chroma subsampling : 4:2:0

    Bit depth : 8 bits

    Scan type : Interlaced

    Scan order : Bottom Field First

    Compression mode : Lossy

    Bits/(Pixel*Frame) : 0.391

    Time code of first frame : 00:00:00:00

    Time code source : Group of pictures header

    Stream size : 727 MiB (71%)

    Color primaries : BT.601 NTSC

    Transfer characteristics : BT.601

    Matrix coefficients : BT.601

    Audio

    ID : 189 (0xBD)-160 (0xA0)

    Format : PCM

    Format settings, Endianness : Big

    Format settings, Sign : Signed

    Muxing mode : DVD-Video

    Duration : 25mn 7s

    Bit rate mode : Constant

    Bit rate : 1 536 Kbps

    Channel(s) : 2 channels

    Sampling rate : 48.0 KHz

    Bit depth : 16 bits

    Stream size : 276 MiB (27%)

    Download Lock Steps with Doug Silton Part 1

    Download Lock Steps with Doug Silton Part 2

    Download Lock Steps with Doug Silton Part 3

    Download Lock Steps with Doug Silton Part 4

    Download Lock Steps with Doug Silton Part 5

    Download Lock Steps with Doug Silton Part 6

    Log in with your credentials

    Forgot your details?